Skip to main content

Cracker Live at Moondance Jam on 2011-07-14

by Cracker



01. lame DJ intro
02. intro interview
03. intro
04. Been Around The World (soundcheck on the fly)
05. Teen Angst
06. The World Is Mine
07. Eurotrash Girl
08. Lonesome Johnny Blues
09. Happy Birthday To Me
10. One Fine Day
11. Gimme One More Chance
12. Low
13. Saint Cajetan
14. Get Off This
15. aftershow sound & recordist's signout


Collection Cracker
Band/Artist Cracker
Venue Moondance Jam
Location Walker MN, USA

Source Neumann KM140's > Beyer MV100 > Sony PCM-M10 > WAV @24/48 + Digidesign console > Analog > Sony PCM-M10 > WAV @24/48
Lineage WAVs > DP4 > Audacity 1.3.13 (tracking, start & end fades) > xACT 2.13 > FLAC level 8
Taped by morst
Transferred by morst & digitalist0ne

Notes

FoH: Virgil

SHNTOOL:
length expanded size cdr WAVE problems fmt ratio filename
1:36.207 27707708 B cxx -- ---xx flac 0.5979 Cracker2011-07-14t01.flac
3:22.658 58365578 B cxx -- ---xx flac 0.5849 Cracker2011-07-14t02.flac
0:47.939 13806548 B cxx -- ---xx flac 0.6060 Cracker2011-07-14t03.flac
5:17.624 91475786 B cxx -- ---xx flac 0.6952 Cracker2011-07-14t04.flac
4:36.967 79766534 B cxx -- ---xx flac 0.7649 Cracker2011-07-14t05.flac
4:02.103 69725840 B cxx -- ---xx flac 0.7481 Cracker2011-07-14t06.flac
9:00.073 155541104 B cxx -- ---xx flac 0.6983 Cracker2011-07-14t07.flac
2:54.341 50210144 B cxx -- ---xx flac 0.6976 Cracker2011-07-14t08.flac
3:44.556 64672286 B cxx -- ---xx flac 0.7206 Cracker2011-07-14t09.flac
7:03.453 121954604 B cxx -- ---xx flac 0.7163 Cracker2011-07-14t10.flac
4:31.880 78301388 B cxx -- ---xx flac 0.7123 Cracker2011-07-14t11.flac
5:45.083 99384074 B cxx -- ---xx flac 0.7169 Cracker2011-07-14t12.flac
7:52.514 136084082 B cxx -- ---xx flac 0.7005 Cracker2011-07-14t13.flac
4:11.356 72390440 B cxx -- ---xx flac 0.7214 Cracker2011-07-14t14.flac
1:49.349 31492616 B cxx -- ---xx flac 0.6147 Cracker2011-07-14t15.flac
66:36.104 1150878732 B 0.7015 (15 files)

-~-~-~-~-~-~-~-~-~-~-~-~-~-~-~-~-~-~-~-~-~-~-~-~-~-
The Soundscape Preservation Society (Founded 1991)
http://www.iamtypingwithonefinger.com/SPS.html
-~-~-~-~-~-~-~-~-~-~-~-~-~-~-~-~-~-~-~-~-~-~-~-~-~-

Reviews

There are no reviews yet. Be the first one to write a review.
DOWNLOAD OPTIONS
In Collection
Cracker
In Collection
Live Music Archive
Uploaded by
morst
on 12/10/2011
Views
382
Favorites
2
PEOPLE ALSO FOUND
Cracker
by Cracker
161
0
0
Source: Schoeps MK4Vs > Lunatec V3 > Sound Devices 744t
Cracker
by Cracker
1,206
0
1
( 1 reviews )
Source: FM > cass > CD > FLAC
Cracker
by Cracker
150
0
0
Source: Sony ECM Mic -> Sony HI-MD -> Sonic Stage -> wav
Cracker
by Cracker
1,235
0
1
( 1 reviews )
Source: Multichannel SBD+AUD
Cracker
by Cracker
400
0
1
( 1 reviews )
Source: Neumann KM140's > Shure FP24 > Sony PCM-M10 > WAV @24/48
Cracker
by Cracker
80
0
0
Source: audience DAT
Cracker
by Cracker
188
0
0
Source: SBD + Audience 4-channel post-production matrix mix
Cracker
by Cracker
346
0
0
Source: SBD > Sony PCM-M10 > WAV @24/48
Cracker
by Cracker
208
0
0
Source: internal Mic > Panasonic RX-SR29 Tape Deck > (2) Maxell XLII 90
Cracker
by Cracker
172
0
0
Source: FOB DFC DPA(B&K)4011s->V2->Luminous Synchestra Signature XLRs->AD2K@ 24/48->722